<?xml version="1.0" standalone="no"?>
<!DOCTYPE svg PUBLIC "-//W3C//DTD SVG 1.1//EN" "http://www.w3.org/Graphics/SVG/1.1/DTD/svg11.dtd" >
<svg xmlns="http://www.w3.org/2000/svg">
<metadata>
<json>
<![CDATA[
{
	"fontFamily": "eaicon",
	"description": "Font generated by IcoMoon.",
	"version": "Version 1.0",
	"majorVersion": 0,
	"fontId": "eaicon",
	"psName": "eaicon",
	"subFamily": "Regular",
	"fullName": "eaicon"
}
]]>
</json>
</metadata>
<defs>
<font id="eaicon" horiz-adv-x="1024">
<font-face units-per-em="1024" ascent="960" descent="-64" />
<missing-glyph horiz-adv-x="1024" />
<glyph unicode="&#x20;" horiz-adv-x="512" d="" />
<glyph unicode="&#xe900;" glyph-name="angle-down" data-tags="angle-down" d="M997.496 741.402c-35.337 35.419-92.662 35.419-128.044 0l-357.438-394.526-357.441 394.526c-35.378 35.419-92.664 35.419-128.040 0-35.378-35.419-35.378-92.791 0-128.211l415.793-458.971c19.138-19.138 44.627-27.575 69.69-26.001 25.019-1.574 50.552 6.863 69.688 26.001l415.793 458.971c35.337 35.419 35.337 92.79 0 128.211z" />
<glyph unicode="&#xe901;" glyph-name="angle-right" data-tags="angle-right" d="M797.688 398.836c28.683 27.153 28.683 71.178 0 98.331l-467.488 442.47c-28.688 27.152-75.196 27.152-103.884 0s-28.688-71.175 0-98.328l415.542-393.308-415.542-393.309c-28.688-27.152-28.688-71.173 0-98.327s75.197-27.153 103.884 0l467.488 442.47z" />
<glyph unicode="&#xe902;" glyph-name="doc" data-tags="doc" d="M488.3 324.857h-144.703c-26.28 0-47.495-21.215-47.495-47.495s21.215-47.496 47.495-47.496h144.703c26.281 0 47.495 21.215 47.495 47.496s-21.531 47.495-47.495 47.495zM679.864 703.857h-336.268c-26.28 0-47.495-21.215-47.495-47.495s21.215-47.495 47.495-47.495h336.268c26.28 0 47.495 21.214 47.495 47.495s-21.215 47.495-47.495 47.495zM679.864 514.5h-336.268c-26.28 0-47.495-21.214-47.495-47.495s21.215-47.495 47.495-47.495h336.268c26.28 0 47.495 21.214 47.495 47.495s-21.215 47.495-47.495 47.495zM730.162-64c25.014 0 49.079 4.747 70.927 13.612 53.508 21.848 93.093 68.081 109.236 123.494 4.754 16.779 9.501 36.411 9.501 52.239 0 34.831 0 101.961 0 101.961v543.028c0 104.806-84.857 189.665-189.664 189.665h-436.324c-104.806 0-189.665-84.858-189.665-189.665v-644.668c0-50.666 19.631-98.158 55.411-134.254 35.147-35.145 81.375-54.777 131.087-55.413h439.491zM226.711 58.536c-18.048 18.052-27.864 41.801-27.864 67.131v644.668c0 52.244 42.429 94.674 94.674 94.674h436.007c52.245 0 94.675-42.429 94.675-94.674v-644.668c0-52.246-42.429-94.676-94.675-94.676h-436.323c-24.698-0.315-48.445 9.816-66.494 27.546z" />
<glyph unicode="&#xe903;" glyph-name="edit" data-tags="edit" d="M722.381 959.999c4.51-1.002 9.023-2.005 13.534-3.006 76.927-15.786 128.799-79.434 129.298-160.372 0.504-79.434 0.249-158.618 0-238.051 0-21.799-9.773-36.586-26.812-42.349-16.036-5.513-33.325-0.499-44.101 12.78-7.765 9.523-9.019 20.549-9.019 32.075 0 77.429-0.249 154.608 0 232.039 0 28.316-8.774 52.371-31.576 70.162-14.783 11.527-31.822 16.789-50.115 16.789-163.126 0-326.006 0.25-489.134 0-44.854 0-77.43-31.824-80.687-76.177-0.25-3.257-0.502-6.766-0.502-10.024 0-230.284 0-460.817 0-691.102 0-28.316 8.77-52.121 31.573-69.911 15.285-12.030 33.078-16.79 52.371-16.79 43.099 0 85.948 0.249 129.049 0 18.794 0 33.077-10.777 38.59-27.566 5.263-15.537 0.752-33.829-13.030-42.848-7.517-5.013-17.541-8.769-26.562-9.019-44.102-1.003-87.954-0.504-132.056-0.504-87.954 0.249-161.123 71.918-160.372 165.634 1.253 131.805 0.502 264.363 0.502 396.672 0 98.727 0 197.456 0 296.185 0 62.645 26.060 111.509 80.437 143.332 16.538 9.773 36.585 13.532 54.878 20.046 2.507 0.752 5.011 1.504 7.517 2.005 175.407 0 350.812 0 526.218 0zM971.173 298.965c-0.249-36.581-12.030-65.151-35.581-88.702-71.918-71.918-143.835-143.835-216.002-215.249-6.766-6.766-16.29-11.78-25.558-14.537-50.115-14.533-100.482-28.316-151.102-42.095-25.309-7.017-46.608 2.503-53.121 25.056-2.256 8.27-2.256 18.042 0.249 26.313 14.783 50.869 30.068 101.486 46.105 151.851 2.507 8.27 7.769 16.54 13.783 22.552 71.418 71.918 143.081 143.586 214.998 214.998 34.328 34.079 75.673 45.356 122.282 30.822 45.609-14.282 72.421-46.608 82.195-93.217 1.249-7.017 1.249-14.033 1.754-17.793zM586.78 33.602c25.558 7.017 49.364 13.278 72.671 20.296 5.009 1.503 10.522 4.51 14.282 8.27 45.1 44.605 89.706 89.456 134.561 134.062 2.003 2.003 4.006 4.26 5.26 5.762-18.793 18.793-37.335 37.335-57.631 57.884-1.503-2.256-3.261-5.762-5.762-8.519-36.585-36.585-72.421-73.925-110.005-109.253-21.549-20.050-36.836-41.848-42.349-71.168-2.256-11.776-7.017-23.552-11.026-37.335zM872.194 260.876c14.783 11.026 22.049 25.813 17.539 44.605-4.010 16.285-15.285 26.058-31.822 29.569-15.537 3.256-31.576-4.51-41.095-18.793 18.542-18.293 36.836-36.836 55.378-55.382zM459.275 719.94c67.658 0 135.316 0 202.973 0 26.812 0 44.851-19.044 42.349-44.353-1.758-18.793-16.79-33.577-36.086-35.582-2.757-0.25-5.264-0.25-8.021-0.25-134.312 0-268.621 0-402.933 0-25.308 0-42.348 14.283-44.102 36.836-2.004 24.306 16.038 43.099 41.597 43.099 50.367 0.25 100.733 0 151.101 0 17.791 0.25 35.332 0.25 53.122 0.25zM458.498 479.906c-67.659 0-135.316 0-202.972 0-27.063 0-44.854 20.296-41.597 45.854 2.255 18.042 17.039 31.825 35.582 33.83 2.756 0.25 5.263 0.25 8.019 0.25 134.562 0 269.375 0 403.937 0 25.558 0 43.353-16.288 43.602-39.34 0.249-23.057-17.289-40.345-41.599-40.345-42.095-0.249-83.943 0-126.042 0-26.309-0.249-52.621-0.249-78.93-0.249zM378.319 319.773c-41.346 0-82.691-0.249-123.787 0-26.562 0.249-44.353 21.299-40.343 46.858 3.006 19.296 19.546 32.829 41.346 33.080 40.845 0.249 81.94 0 122.784 0 41.346 0 82.693 0.249 123.789 0 26.559-0.249 44.352-21.299 40.341-46.858-3.006-19.546-19.546-33.080-41.345-33.080-40.845 0-81.69 0-122.785 0z" />
<glyph unicode="&#xe904;" glyph-name="element" data-tags="element" d="M737.090 537.875c3.485 6.092 5.225 13.053 5.225 20.015v202.325c0 0 0 0-0.439 0-69.613 39.159-135.313 75.708-200.581 113.563-18.275 10.443-33.069 10.443-51.342-0.435-57.869-33.503-139.67-78.754-199.714-112.258 15.664-8.702 14.358-8.267 0.435-0.87v-202.759c0-6.961 1.74-13.924 5.221-20.015 1.741-3.046 3.916-5.221 6.527-6.961 60.914-35.679 174.043-96.594 174.043-96.594l2.175 223.21c8.702-4.786 17.404-9.572 26.106-14.358 5.657-3.046 14.793-4.352 20.015-1.306 10.007 5.221 20.015 10.878 30.025 16.099l1.301-223.645c0 0 113.565 60.915 174.046 96.594 3.046 1.741 4.785 4.352 6.959 7.397zM1023.807 341.21c-69.618 39.159-135.319 75.708-200.585 113.563-18.275 10.443-33.070 10.443-51.344-0.435-57.869-33.503-140.104-78.755-199.712-112.693 15.662-8.703 13.923-8.27 0.434-0.87v-202.761c0-6.959 1.745-13.923 5.225-20.014 1.739-3.046 3.913-5.219 6.525-6.964 60.914-35.676 174.046-96.591 174.046-96.591l2.173 223.211c8.703-4.791 17.401-9.576 26.106-14.362 5.658-3.046 14.795-4.352 20.014-1.306 10.010 5.225 20.014 10.877 30.024 16.101l1.306-223.645c0 0 113.565 60.914 174.041 96.591 2.612 1.306 4.352 3.918 6.53 6.964 3.479 6.092 5.219 13.056 5.219 20.014v203.196c0.434 0.434 0 0 0 0zM251.057 455.197c-18.275 10.443-33.068 10.443-51.342-0.435-57.869-33.503-140.104-78.754-199.714-112.693 15.664-8.704 13.924-8.265 0.435-0.87v-202.761c0-6.959 1.74-13.923 5.221-20.014 1.74-3.046 3.916-5.219 6.526-6.959 60.914-35.682 174.043-96.597 174.043-96.597l2.175 223.211c8.702-4.785 17.405-9.576 26.106-14.362 5.657-3.046 14.793-4.352 20.015-1.306 10.007 5.225 20.015 10.882 30.023 16.101l1.305-223.645c0 0 113.563 60.914 174.043 96.597 2.611 1.301 4.352 3.913 6.527 6.959 3.481 6.092 5.221 13.056 5.221 20.014v202.761c0 0 0 0-0.435 0-69.182 39.594-134.883 76.143-200.149 113.998z" />
<glyph unicode="&#xe905;" glyph-name="extension" data-tags="extension" d="M1017.217 322.67c-19.258 110.844-151.93 165.196-239.45 86.236-10.483-9.415-22.035-13.267-36.16-12.197-9.203 0.856-15.194 3.638-14.982 14.551 0.646 43.225 3.002 85.594-0.422 128.819-1.926 24.18 0.851 50.286-13.056 72.326-21.824 34.452-50.714 56.706-93.939 56.706-47.505 0.214-151.287 4.066-155.139 4.066-5.564 17.119-1.498 31.028 7.917 43.652 2.568 3.424 4.708 7.062 7.276 10.485 21.612 28.032 29.744 59.702 28.674 95.009-2.782 101.642-103.354 160.916-192.372 129.032-94.153-34.023-124.753-151.286-59.916-228.107 13.481-16.049 18.616-31.242 10.057-51.784-3.852 0-117.049-1.712-169.047-2.782-40.229-0.856-87.734-44.936-89.018-83.453-0.428-14.979-1.070-41.513-1.284-53.068 0.856-27.604 0-55.208-0.642-83.026 0-8.131 0-16.691-0.214-25.678 1.284-7.489 6.848-9.629 14.765-10.485 14.123-1.284 25.678 2.568 36.163 12.197 87.52 78.96 220.19 24.822 239.449-86.236 0.214-1.712 1.284-3.424 1.711-4.922v-32.097c-2.14-7.488-4.065-14.982-6.205-22.47-29.958-101.427-149.789-138.445-230.889-70.829-15.835 13.485-31.67 17.549-53.068 11.987 0-8.563-1.284-75.328-2.14-127.75 0.214-28.032 0.428-47.078 0.856-52.429v-2.138h0.214c0.642-7.488 1.284-14.982 1.926-22.253 1.926-20.333 12.411-36.378 27.176-50.714 8.773-8.563 17.975-15.194 28.032-19.904 13.481-6.419 28.46-9.414 43.439-9.414h515.060c15.192 0 29.96 3.424 43.438 10.272 0 0 0.211 0 0.211 0.211 21.19 11.13 36.378 29.318 49.434 49.216 7.277 11.13 10.701 22.47 10.701 35.738 0.211 46.010 2.566 161.344 2.566 172.685 21.395 5.562 37.235 1.286 53.28-11.77 81.318-67.616 200.934-30.598 230.893 70.829 2.138 7.488 4.064 14.982 6.202 22.47v32.096c-0.429 1.715-1.28 3.21-1.498 4.922z" />
<glyph unicode="&#xe906;" glyph-name="gear-alt" data-tags="gear-alt" d="M1014.891 504.85c-1.581 14.391-18.189 25.185-32.621 25.185-46.451 0-87.571 27.583-104.768 70.157-17.594 43.573-6.33 94.542 28.269 126.522 10.874 9.994 12.256 26.984 3.162 38.577-23.725 30.381-50.605 57.964-80.256 81.949-11.469 9.395-28.467 7.995-38.554-3.198-30.24-33.779-84.41-46.371-126.317-28.582-43.488 18.589-70.966 63.161-68.396 111.132 0.988 14.991-10.082 28.183-24.908 29.982-37.757 4.397-75.909 4.597-113.864 0.4-14.628-1.599-25.501-14.391-25.105-29.382 1.581-47.371-26.094-91.344-69.386-109.133-41.316-16.99-95.085-4.597-125.33 28.782-9.884 10.993-26.687 12.392-38.152 3.198-30.245-23.985-57.921-51.569-81.84-81.75-9.291-11.793-7.907-28.782 2.965-38.776 35.78-32.58 47.246-83.948 28.861-127.921-17.396-42.174-60.688-69.158-110.108-69.158-16.012 0.6-27.478-10.394-29.257-25.185-4.349-38.376-4.547-77.552-0.198-116.328 1.581-14.591 18.582-25.185 33.21-25.185 44.083 1.199 86.387-26.383 104.178-70.155 17.791-43.578 6.326-94.541-28.269-126.522-10.872-9.997-12.256-26.784-3.163-38.579 23.524-30.381 50.409-57.766 80.061-81.952 11.663-9.389 28.466-8.192 38.548 3.002 30.245 33.779 84.41 46.368 126.12 28.582 43.688-18.387 71.165-63.162 68.397-111.13-0.79-14.995 10.082-28.186 24.908-29.984 19.373-2.202 38.745-3.398 58.316-3.398 18.582 0 36.966 0.998 55.548 2.995 14.628 1.6 25.501 14.394 25.106 29.382-1.779 47.373 26.093 91.347 69.19 109.133 41.709 17.19 95.283 4.602 125.325-28.781 10.086-10.995 26.49-12.39 38.157-3.2 30.246 23.987 57.722 51.571 81.837 81.952 9.293 11.795 8.109 28.781-2.963 38.976-35.187 32.179-46.656 83.552-28.269 127.725 17.197 41.572 58.714 69.355 103.584 69.355l6.33-0.2c14.426-1.199 27.872 10.194 29.651 25.185 4.147 38.576 4.346 77.552 0 116.328zM762.451 296.78c-1.779-3.2-3.757-6.202-5.734-9.197l-103.584 104.736c7.91 18.788 12.058 38.976 12.058 59.963 0 40.975-15.814 79.551-44.475 108.533-28.664 28.982-66.816 44.973-107.341 44.973-13.443 0-27.082-1.799-40.129-5.397-5.732-1.599-10.28-6.396-11.861-12.192-1.581-5.997 0.198-11.993 4.744-16.59 0 0 53.572-54.566 71.561-72.755 1.976-1.799 1.779-6.396 1.581-7.995l-0.198-1.199c-1.779-19.988-5.338-43.773-8.105-52.968-0.396-0.4-0.791-0.799-1.186-1.199s-0.791-0.799-1.187-1.199c-9.291-2.998-33.21-6.596-53.176-8.395v0.2l-0.989-0.2c-0.198 0-0.395 0-0.79 0-2.175 0-5.338 0.6-8.303 3.598-18.582 18.788-70.177 70.557-70.177 70.557-4.547 4.597-9.291 5.596-12.454 5.596-7.315 0-14.035-5.396-16.012-12.992-14.233-52.967 0.79-109.932 39.14-148.708 28.664-28.98 66.816-44.973 107.341-44.973 20.756 0 40.723 4.198 59.304 12.192l104.575-105.734c-1.581-0.998-3.162-2.195-4.749-3.2l-3.558-2.195c-46.847-30.381-102.989-47.571-163.084-46.374-154.389 3.2-280.904 129.722-285.649 285.627-5.14 170.296 132.644 309.41 301.068 304.013 156.17-4.997 281.892-136.316 282.289-294.22 0.397-55.965-14.63-107.933-40.922-152.304z" />
<glyph unicode="&#xe907;" glyph-name="gear" data-tags="gear" d="M512.124 612.857c-90.794 0-164.522-73.728-164.522-164.523s73.728-164.522 164.522-164.522c90.795 0 164.523 73.728 164.523 164.522 0.341 90.454-73.728 164.523-164.523 164.523zM512.124 375.972c-39.594 0-72.021 32.426-72.021 72.022s32.426 72.021 72.021 72.021c39.595 0 72.022-32.426 72.022-72.021s-32.086-72.022-72.022-72.022zM1001.943 335.702l-98.992 76.117c2.392 24.235 2.392 48.47 0 72.363l98.992 76.117c18.432 14.336 23.552 40.278 11.6 60.416l-98.984 167.595c-8.192 13.994-23.552 22.869-39.936 22.869-5.8 0-11.608-1.024-17.064-3.072l-117.76-46.421c-20.483 14.336-42.67 26.965-65.539 37.205l-17.75 121.856c-2.73 22.187-22.528 39.253-45.398 39.253h-197.973c-22.87 0-42.667-17.067-45.739-39.595l-17.749-121.856c-22.87-10.24-45.056-22.87-65.536-37.206l-117.76 46.422c-5.462 2.048-11.264 3.072-17.067 3.072-16.384 0-31.744-8.875-39.936-22.87l-98.987-167.594c-11.947-20.139-6.827-46.080 11.605-60.416l98.987-76.118c-2.39-23.894-2.39-48.47 0-72.362l-98.987-76.118c-18.432-14.336-23.552-40.278-11.605-60.416l98.987-167.592c8.192-14 23.552-22.872 39.936-22.872 5.803 0 11.606 1.024 17.067 3.072l117.76 47.104c20.48-14.336 42.666-26.968 65.536-37.208l17.749-121.856c3.414-22.528 22.87-39.592 45.739-39.592h197.973c22.87 0 42.667 17.064 45.738 39.592l17.75 121.856c22.87 10.24 45.056 22.872 65.535 37.208l117.76-46.424c5.464-2.048 11.264-3.072 17.072-3.072 16.384 0 31.744 8.88 39.936 22.872l98.984 167.594c11.608 20.139 6.488 46.080-11.944 60.075zM855.167 188.928l-105.128 41.302c-5.464 2.048-11.264 3.072-17.070 3.072-10.581 0-20.821-3.755-29.013-10.238-25.942-21.168-55.296-37.888-87.040-49.152-16.043-5.808-27.648-19.8-30.038-36.864l-15.702-108.544h-117.76l-15.701 108.544c-2.39 17.064-13.995 31.056-30.038 36.864-31.744 11.6-61.098 27.984-87.040 49.152-8.192 6.824-18.432 10.238-29.014 10.238-5.802 0-11.605-1.024-17.066-3.072l-105.13-41.302-58.027 98.304 87.723 67.242c13.653 10.582 20.48 27.648 17.408 44.715-5.462 32.426-5.462 65.194 0 97.621 3.072 17.067-3.755 34.134-17.408 44.715l-87.723 67.242 58.027 98.304 105.13-41.302c5.462-2.048 11.264-3.072 17.066-3.072 10.582 0 20.822 3.755 29.014 10.24 25.942 21.163 55.296 37.888 87.040 49.152 16.042 5.803 27.648 19.798 30.038 36.864l15.701 108.544h117.76l15.702-108.544c2.39-17.066 13.994-31.061 30.038-36.864 31.744-11.605 61.098-27.989 87.040-49.152 8.192-6.826 18.432-10.24 29.013-10.24 5.806 0 11.606 1.024 17.070 3.072l105.128 41.302 58.024-98.304-87.72-67.242c-13.656-10.582-20.48-27.648-17.408-44.715 5.464-32.426 5.464-65.194 0-97.621-3.072-17.067 3.752-34.134 17.408-44.715l87.72-67.242-58.024-98.304z" />
<glyph unicode="&#xe908;" glyph-name="lock-alt" data-tags="lock-alt" d="M804.604 564.127l-584.707-0.505c-47.463 0-86.342-38.879-86.342-86.342v-505.434c0-19.693 16.158-35.846 35.85-35.846l673.573 0.499c26.259 0 47.462 21.21 47.462 47.469v493.817c0.506 47.464-38.374 86.342-85.836 86.342zM552.141 191.999v-79.782c0-20.198-16.662-36.858-36.86-36.858s-36.86 16.659-36.86 36.858v79.782c-37.365 14.643-63.621 50.995-63.621 93.407 0 55.544 44.939 100.482 100.48 100.482s100.48-44.939 100.48-100.482c0.505-42.413-26.257-78.765-63.622-93.407zM516.288 249.066c20.358 0 36.86 16.499 36.86 36.858s-16.502 36.861-36.86 36.861c-20.357 0-36.86-16.503-36.86-36.861s16.502-36.858 36.86-36.858zM765.715 740.356c-20.702 127.241-127.241 219.644-252.969 219.644-7.069 0-13.633-0.505-20.702-1.010-134.311-10.604-235.297-122.192-235.802-259.533 0-40.394 0-98.46 0-144.409v-33.83h85.838v9.594c0 12.118-0.505 24.741-1.010 37.869-1.515 56.552-3.030 120.677 2.524 167.636 7.574 62.107 48.474 108.559 115.628 130.776 18.682 6.060 37.87 9.594 55.542 9.594 40.394 0 78.769-15.652 114.114-47.463 35.345-31.306 54.028-72.71 56.047-123.202 1.010-27.267 15.652-42.919 40.899-44.434 1.010 0 1.515 0 2.525 0 10.099 0 18.682 3.534 25.752 10.604 8.584 8.584 13.633 21.712 13.633 36.355 0.505 11.613-0.505 21.712-2.020 31.811z" />
<glyph unicode="&#xe909;" glyph-name="long-arrow-right" data-tags="long-arrow-right" d="M48.672 401.677h816.549l-152.979-152.98c-43.939-43.939 21.972-109.85 65.915-65.906l232.324 232.687c18.025 18.133 18.025 47.417 0 65.55l-232.324 232.598c-8.838 9.083-21.008 14.18-33.685 14.074-41.843-0.005-62.378-50.972-32.23-79.988l153.341-152.979h-819.316c-64.444-3.197-59.632-96.262 2.406-93.054z" />
<glyph unicode="&#xe90a;" glyph-name="monitor" data-tags="monitor" d="M929.337 942.343h-834.342c-52.399 0-94.996-42.086-94.996-93.859v-588.537c0-51.769 42.596-93.859 94.996-93.859h177.484l-61.527-130.266c-9.128-19.371-8.113-39.745 2.366-56.115 10.48-16.363 29.073-26.051 50.372-26.051h496.617c21.299 0 39.886 9.35 50.366 26.051 10.48 16.37 11.497 37.076 2.373 56.115l-61.531 130.266h177.484c52.4 0 94.999 42.090 94.999 93.859v588.537c0.339 51.772-42.26 93.859-94.66 93.859zM302.229 35.824l61.865 130.598h296.481l61.864-130.598h-420.211zM82.825 848.485c0 6.346 5.409 12.025 12.17 12.025h834.342c6.426 0 12.168-5.344 12.168-12.025v-588.537c0-6.346-5.41-12.025-12.168-12.025h-834.342c-6.423 0-12.17 5.344-12.17 12.025v588.537z" />
<glyph unicode="&#xe90b;" glyph-name="play-alt" data-tags="play-alt" d="M512 960c-282.77 0-512-229.23-512-512s229.23-512 512-512c282.771 0 512 229.229 512 512-0.299 282.643-229.356 511.698-512 512zM512 9.142c-242.375 0-438.858 196.485-438.858 438.858 0 242.375 196.483 438.858 438.858 438.858 242.373 0 438.858-196.483 438.858-438.858-0.262-242.266-196.592-438.596-438.858-438.858zM727.63 464.31c-3.543 7.111-9.306 12.874-16.417 16.417l-292.573 146.288c-18.068 9.028-40.033 1.701-49.063-16.367-2.539-5.081-3.859-10.684-3.857-16.365v-292.572c-0.009-20.201 16.357-36.581 36.555-36.59 5.681-0.004 11.286 1.315 16.365 3.854l292.573 146.289c18.076 9.007 25.428 30.97 16.417 49.046zM438.866 360.882v174.227l174.227-87.114-174.227-87.114z" />
<glyph unicode="&#xe90c;" glyph-name="plug" data-tags="plug" d="M1001.495 615.607c-14.481 14.484-34.137 22.761-54.835 22.761-20.692 0-40.346-8.277-54.829-22.761l-178.986-180.021-208.993 208.99 180.023 180.021c14.481 14.484 22.76 34.142 22.76 54.835s-8.278 40.349-22.76 54.834c-14.488 14.484-34.143 22.761-54.836 22.761s-40.35-8.277-54.835-22.761l-180.021-181.056-114.841 114.841c-5.173 5.173-12.415 8.277-19.657 8.277s-14.484-3.104-19.657-9.312c-165.537-182.091-75.526-576.273-66.215-614.558l-165.537-165.535c-5.173-5.173-8.277-12.413-8.277-19.655 0-7.248 3.104-14.488 8.277-19.661l100.357-100.355c5.173-5.173 12.415-8.278 19.657-8.278s14.484 3.105 19.657 8.278l165.537 165.535c80.7-20.692 182.091-33.106 271.066-33.106 106.565 0 253.476 17.587 343.491 99.324 5.173 5.173 9.309 12.413 9.309 19.655s-3.105 14.481-8.278 19.655l-107.595 107.601 180.017 180.021c30.007 30.004 30.007 79.665 0 109.668z" />
<glyph unicode="&#xe90d;" glyph-name="question" data-tags="question" d="M498.735 312.288c-0.118 0-0.237 0-0.355 0-21.757 0.197-39.257 17.992-39.060 39.769l0.177 19.707c0 1.123 0.059 2.267 0.178 3.39 5.459 57.328 43.513 92.465 74.119 120.705 10.366 9.578 20.18 18.624 28.536 28.063 10.188 11.489 24.969 35.020 9.419 63.418-17.913 32.793-61.663 42.075-95.658 34.29-35.512-8.119-48.598-38.448-53.249-55.79-5.636-21.028-27.255-33.502-48.282-27.886-21.028 5.636-33.502 27.255-27.886 48.282 15.707 58.668 56.461 99.561 111.798 112.232 74.473 17.007 149.478-13.085 182.41-73.291 27.412-50.135 19.904-108.96-19.609-153.538-10.977-12.376-22.703-23.215-34.054-33.679-28.28-26.112-45.957-43.573-48.952-68.778l-0.158-17.796c-0.157-21.698-17.776-39.099-39.374-39.099zM498.726 194.114c-10.248 0-20.495 4.133-27.787 11.425-7.489 7.292-11.628 17.54-11.628 27.987 0 10.248 4.138 20.495 11.628 27.787 14.583 14.583 40.991 14.583 55.574 0 7.488-7.292 11.627-17.539 11.627-27.787 0-10.447-4.138-20.497-11.43-27.987-7.488-7.292-17.539-11.425-27.984-11.425zM510.594-64c-44.834 0-89.274 5.837-132.097 17.364-184.537 49.642-329.030 202.511-368.109 389.469-39.828 190.469 33.679 390.693 187.296 510.098 88.801 69.034 200.795 107.069 315.372 107.069 79.321 0 158.091-18.446 227.811-53.308 172.186-86.14 283.429-266.105 283.429-458.505 0-156.987-74.079-308.294-198.151-404.748-89.117-69.288-201.191-107.44-315.551-107.44zM513.077 881.172c-97.136 0-191.966-32.123-266.991-90.476-130.008-101.058-192.243-270.519-158.524-431.723 33.069-158.152 155.312-287.484 311.431-329.482 36.143-9.713 73.705-14.665 111.601-14.665h0.019c96.92 0 191.789 32.263 267.17 90.851 105.019 81.627 167.709 209.665 167.709 342.51 0 162.8-94.142 315.097-239.857 387.993-58.845 29.423-125.416 44.992-192.558 44.992z" />
<glyph unicode="&#xe90e;" glyph-name="star" data-tags="star" d="M1022.247 566.837c-4.251 13.040-15.527 22.55-29.107 24.532l-310.125 45.029-138.691 281.056c-12.143 24.604-52.487 24.604-64.626 0l-138.692-281.056-310.127-45.029c-13.58-1.981-24.857-11.492-29.107-24.532s-0.72-27.341 9.114-36.924l224.391-218.735-52.99-308.939c-2.306-13.509 3.242-27.163 14.337-35.23 11.131-8.142 25.829-9.149 37.933-2.736l277.454 145.821 277.416-145.821c5.261-2.775 11.023-4.145 16.753-4.145 7.455 0 14.915 2.307 21.183 6.881 11.093 8.068 16.639 21.721 14.337 35.23l-52.99 308.939 224.391 218.735c9.832 9.583 13.365 23.883 9.149 36.924zM724.838 349.508c-8.466-8.252-12.358-20.211-10.375-31.882l43.837-255.66-229.578 120.677c-5.188 2.775-10.948 4.181-16.714 4.181s-11.526-1.37-16.749-4.141l-229.58-120.681 43.841 255.66c1.981 11.671-1.873 23.595-10.375 31.882l-185.701 181.017 256.632 37.284c11.743 1.692 21.868 9.078 27.126 19.705l114.807 232.568 114.772-232.568c5.257-10.627 15.382-18.012 27.124-19.705l256.636-37.284-185.701-181.053z" />
<glyph unicode="&#xe90f;" glyph-name="support" data-tags="support" d="M134.373-63.999c-48.767 0-88.35 39.617-88.35 88.424v126.456c0 85.57 63.967 157.512 148.518 167.018h0.95c52.883 6.025 101.017 28.525 139.334 64.971l4.75 4.44-4.434 4.751c-27.233 28.209-47.817 62.755-59.217 100.151l-1.266 4.436h-7.917c-73.467 0-133.317 59.9-133.317 133.428v0.317c0 73.211 59.534 133.11 132.368 133.427h5.067l1.266 4.754c12.35 53.244 43.067 101.735 86.134 136.28 42.75 35.813 97.533 55.146 153.582 55.146 56.054 0 110.834-19.333 154.218-54.512 43.069-34.545 73.466-83.035 86.135-136.28l1.266-4.754h5.067c72.835-0.634 132.051-60.534 132.051-133.745 0-73.844-59.851-133.746-133.317-133.746h-7.918l-1.266-4.436c-11.399-37.712-32.301-72.892-60.166-101.102l-4.436-4.751 4.751-4.436c38.318-36.131 88.035-59.269 140.284-64.655 85.185-9.191 149.467-81.134 149.467-167.338v-125.821c0-48.808-39.584-88.424-88.351-88.424h-755.254zM404.808 337.233c-52.567-56.095-123.501-91.91-199.818-100.782h-0.95c-43.067-5.071-75.684-41.837-75.684-85.254v-132.792h766.972v131.842c0 44.052-32.616 80.499-76.001 85.254-76.952 8.241-148.832 44.052-202.035 100.782l-3.166 3.17-4.116-1.901c-31.035-13.627-64.283-20.603-98.169-20.603-34.832 0-68.399 6.975-99.749 20.918l-4.116 1.901-3.167-2.535zM511.841 877.599c-90.565 0-164.349-73.845-164.349-164.487v-148.323c0-90.644 73.784-164.486 164.349-164.486 61.121 0 116.851 33.595 145.351 87.79l5.067 9.191h-146.932c-22.802 0-41.169 18.383-41.169 41.202s18.366 41.2 41.169 41.2h160.866v133.427c0 1.902 0 4.12 0 6.022 0 1.585-0.315 2.535-0.315 3.803-5.067 86.838-77.267 154.662-164.037 154.662zM758.526 578.735l7.283 1.268c24.383 4.437 42.119 25.671 42.119 50.392 0 25.037-17.736 46.272-42.119 50.708l-7.283 1.268v-103.636zM257.558 681.42c-24.7-4.12-42.434-25.354-42.434-50.392v-0.317c0-25.037 17.734-46.272 42.434-50.392l7.283-1.268v103.636l-7.283-1.268z" />
<glyph unicode="&#xe910;" glyph-name="times" data-tags="times" d="M1024 816.641l-143.36 143.359-368.641-368.64-368.639 368.64-143.359-143.359 368.64-368.639-368.64-368.641 143.359-143.36 368.639 368.64 368.641-368.64 143.36 143.36-368.64 368.641 368.64 368.639z" />
<glyph unicode="&#xe911;" glyph-name="tools" data-tags="tools" d="M211.676 960c133.828-0.914 233.401-126.977 202.798-258.522-4.111-18.27 0-29.232 12.333-41.565 100.029-99.115 199.601-198.687 298.26-298.716 13.702-13.702 25.574-16.443 43.846-12.332 130.63 29.232 253.958-67.597 254.413-200.513 0-16.448-2.285-33.344-5.939-49.786-6.848-30.605-31.514-38.368-54.355-16.902-26.944 25.581-52.525 52.986-79.93 78.56-20.557 19.187-51.616 20.557-73.997 5.485-21.92-15.072-31.968-42.938-22.381-68.512 3.654-9.594 10.509-18.733 17.357-26.035 21.926-23.296 46.138-44.307 67.142-68.518 8.678-10.048 16.902-27.405 14.163-38.822-2.285-9.594-20.096-19.642-32.429-22.381-147.533-30.144-275.423 100.032-242.994 247.558 4.568 20.102 0.913 32.89-14.159 47.507-99.572 98.2-198.687 197.315-296.89 297.344-13.246 13.702-25.121 16.9-43.848 12.789-147.988-33.343-278.619 93.178-250.757 241.165 2.741 15.073 5.024 33.8 23.294 34.713 12.789 0.457 28.775-6.851 39.281-15.53 24.208-21.011 45.219-44.762 68.513-67.142 26.948-26.035 63.489-26.948 87.697-2.74 24.208 24.664 23.294 59.834-3.654 87.24-22.381 23.295-47.502 46.132-69.426 71.254-7.765 9.135-14.159 25.121-11.419 35.626 2.284 9.135 17.356 17.357 28.319 21.467 13.702 5.024 29.689 5.024 44.762 7.308zM321.3 424.686c56.18-56.18 111.448-111.446 167.628-168.086-1.827-2.285-3.654-6.394-6.851-9.133-90.894-90.893-181.788-181.792-273.138-272.685-51.156-50.701-125.607-51.61-173.566-3.194-47.502 47.501-46.589 121.491 3.197 171.738 90.437 91.347 181.787 182.244 272.681 273.138 3.197 2.74 6.851 5.481 10.049 8.221zM372 268.018c-8.221 9.594-14.159 23.296-21.924 24.666-11.419 1.83-28.319-0.915-36.084-8.678-58.921-57.094-116.929-115.558-174.479-173.568-15.987-15.981-16.444-32.883-3.197-46.131 13.246-13.242 29.232-11.872 45.676 4.57 57.551 57.094 115.101 114.643 172.652 172.653 5.938 5.939 10.049 15.072 17.357 26.49zM661.592 512.392c-31.516 31.516-58.465 58.008-85.87 85.413 66.683 66.229 132.916 132.458 200.059 198.687-7.763 10.049-14.163 15.53-17.811 22.838-7.77 15.53-4.57 30.146 10.502 39.738 52.525 31.972 105.51 63.489 158.496 95.005 14.611 8.678 27.859 5.024 39.277-6.395 15.072-14.616 30.144-30.146 45.222-45.219 14.611-14.616 15.526-29.689 5.024-47.045-28.781-47.503-56.64-95.462-85.875-142.508-18.726-31.059-34.707-32.429-61.203-7.308-2.739 2.284-5.478 4.567-10.963 9.135-66.227-67.599-131.085-134.285-196.858-202.342z" />
<glyph unicode="&#xe912;" glyph-name="calendar" data-tags="calendar" d="M954.922 898.848h-882.912c-40.701 0-72.011-34.44-72.011-72.011v-757.675c0-40.701 34.44-72.011 72.011-72.011h879.78c40.701 0 72.011 34.44 72.011 72.011v757.675c3.131 40.701-31.308 72.011-68.879 72.011zM983.099 69.162c0-18.785-15.655-31.308-31.308-31.308h-879.78c-18.785 0-31.308 15.655-31.308 31.308v757.675c0 18.785 15.655 31.308 31.308 31.308h879.78c18.785 0 31.308-15.655 31.308-31.308v-757.675zM610.524 216.307c-9.393 0-15.655 6.262-15.655 15.655v237.948c0 12.523 9.393 15.655 15.655 15.655h228.555c6.262 0 15.655 0 15.655-15.655v-241.079c0-12.523-9.393-15.655-15.655-15.655h-228.555v3.131zM632.44 257.009h187.853v190.984h-187.853v-190.984zM250.459 664.037c0 21.916-15.655 37.571-37.57 37.571s-37.57-15.656-37.57-37.571c0-21.916 15.655-37.57 37.57-37.57s37.57 15.655 37.57 37.57zM660.593 664.037c0 21.916-15.655 37.571-37.57 37.571s-37.57-15.656-37.57-37.571c0-21.916 15.655-37.57 37.57-37.57s37.57 15.655 37.57 37.57zM867.219 664.037c0 21.916-15.655 37.571-37.57 37.571s-37.57-15.656-37.57-37.571c0-21.916 15.655-37.57 37.57-37.57 18.785 0 37.57 15.655 37.57 37.57zM457.085 664.037c0 21.916-15.655 37.571-37.57 37.571s-37.57-15.656-37.57-37.571c0-21.916 15.655-37.57 37.57-37.57 18.785 0 37.57 15.655 37.57 37.57zM250.459 457.396c0 21.916-15.655 37.57-37.57 37.57s-37.57-15.655-37.57-37.57c0-21.916 15.655-37.57 37.57-37.57 21.916-3.131 37.57 15.655 37.57 37.57zM457.085 457.396c0 21.916-15.655 37.57-37.57 37.57s-37.57-15.655-37.57-37.57c0-21.916 15.655-37.57 37.57-37.57 18.785-3.131 37.57 15.655 37.57 37.57zM250.459 247.635c0 21.916-15.655 37.57-37.57 37.57s-37.57-15.655-37.57-37.57c0-21.916 15.655-37.57 37.57-37.57s37.57 15.655 37.57 37.57zM457.085 247.635c0 21.916-15.655 37.57-37.57 37.57s-37.57-15.655-37.57-37.57c0-21.916 15.655-37.57 37.57-37.57 18.785 0 37.57 15.655 37.57 37.57z" />
<glyph unicode="&#xe913;" glyph-name="course" data-tags="course" d="M637.091-22.303c-72.126 0-141.244 6.010-210.362 21.037-9.014 3.004-15.024 9.014-15.024 21.034v243.416l-126.216 36.061c-9.016 0-15.026 9.017-15.026 18.030 0 9.017 6.010 18.034 15.026 21.037l345.592 102.176c3.004 0 3.004 0 6.010 0 3.004 0 3.004 0 6.010 0l348.596-102.176c3.004 0 3.004 0 6.010-3.004 6.010-3.006 9.014-9.017 9.014-18.034v-123.21l15.027-36.061c3.004-6.010 3.004-12.020 0-15.027-3.006-6.010-6.010-9.014-12.020-12.020-3.006 0-6.010-3.004-9.017-3.004-6.010 0-27.044 0-33.054 0-3.006 0-6.010 0-9.017 3.004-9.014 3.006-15.027 15.027-12.020 27.047l15.027 36.061v99.169l-321.552-96.163c-3.004 0-3.004 0-6.010 0-3.004 0-3.004 0-6.010 0l-180.308 54.091v-213.366h3.006c60.102-12.020 120.203-15.024 183.311-15.024s123.21 6.010 183.315 15.024h3.004v138.237c0 12.020 9.017 21.037 21.037 21.037s21.037-9.017 21.037-21.037v-156.268c0-9.014-6.014-18.030-15.027-21.034-66.112-15.027-138.237-21.037-210.359-21.037zM363.624 317.276l273.467-81.136 276.471 81.136-276.471 81.139-273.467-81.139zM333.569 109.924c-3.004 0-3.004 0-6.010 0l-312.533 99.169c-9.016 3.004-15.026 12.020-15.026 21.034v667.141c0 6.010 3.006 12.020 9.016 18.030 3.006 3.006 9.016 3.006 12.020 3.006s3.006 0 6.010 0l408.699-126.216 402.688 126.216c3.006 0 3.006 0 6.010 0 3.006 0 9.017 0 12.020-3.006 6.014-3.006 9.017-9.016 9.017-18.030v-426.73c0-12.020-9.017-21.037-21.037-21.037s-21.034 9.017-21.034 21.037v396.678l-369.633-117.2v-270.464c0-12.020-9.014-21.034-21.034-21.034-12.024 0-21.037 9.014-21.037 21.034v273.469l-369.633 117.2v-628.072l297.507-93.159c12.024-3.006 18.034-15.027 12.024-27.047-3.006-6.010-9.017-12.020-18.034-12.020zM225.385 425.462c-3.006 0-3.006 0-6.010 0l-66.113 21.037c-6.010 3.004-9.016 6.010-12.020 9.014-3.006 6.010-3.006 9.017 0 15.027 3.006 9.014 12.020 15.024 21.036 15.024 3.006 0 3.006 0 6.010 0l66.113-21.034c12.020-3.006 18.030-15.027 12.020-27.047-3.006-6.010-12.020-12.020-21.036-12.020zM573.983 524.631c-9.017 0-18.030 6.010-21.037 15.027-3.004 6.010 0 12.020 0 15.024 3.006 6.010 6.010 9.017 12.020 9.017l132.227 42.072c3.006 0 3.006 0 6.010 0 9.017 0 18.030-6.010 21.037-15.024 3.004-12.020-3.006-21.037-12.020-27.047l-132.227-42.071c-3.006 3.004-6.010 3.004-6.010 3.004zM291.499 524.631c-3.006 0-3.006 0-6.010 0l-132.226 42.071c-12.020 3.006-18.030 15.027-12.020 27.047 3.006 9.016 12.020 15.026 21.036 15.026 3.006 0 3.006 0 6.010 0l132.226-42.074c6.010-3.004 9.016-6.010 12.020-9.014 3.006-6.010 3.006-9.017 0-15.027-3.006-12.020-12.020-18.030-21.036-18.030zM573.983 635.822c-9.017 0-18.030 6.010-21.037 15.026-3.004 12.020 3.006 21.036 12.020 27.046l132.227 42.072c3.006 0 3.006 0 6.010 0 9.017 0 18.030-6.010 21.037-15.026 3.004-6.010 0-12.020 0-15.026-3.006-6.010-6.010-9.016-12.020-9.016l-132.227-42.072c-3.006-3.006-6.010-3.006-6.010-3.006zM291.499 635.822c-3.006 0-3.006 0-6.010 0l-132.226 42.072c-6.010 3.006-9.016 6.010-12.020 9.016-3.006 6.010-3.006 9.016 0 15.026 3.006 9.016 12.020 15.026 21.036 15.026 3.006 0 3.006 0 6.010 0l132.226-42.072c12.020-3.006 18.030-15.026 12.020-27.046-3.006-6.010-12.020-12.020-21.036-12.020z" />
<glyph unicode="&#xe914;" glyph-name="form" data-tags="form" d="M1000.953 960h-981.197c-9.878 0-19.756-9.878-19.756-19.756v-984.488c0-9.88 9.878-19.756 19.756-19.756h984.488c9.88 0 19.756 9.876 19.756 19.756v981.196c0 13.17-9.876 23.048-23.047 23.048zM984.488-24.488h-944.977v806.687h944.977v-806.687zM984.488 821.711h-944.977v95.486h944.977v-95.486zM105.373 890.862h-39.511v-39.511h39.511v39.511zM174.477 890.862h-39.511v-39.511h39.511v39.511zM240.339 890.862h-39.511v-39.511h39.511v39.511zM195.894 558.313h632.18c9.876 0 19.756 9.88 19.756 19.756v102.072c0 9.878-9.88 19.756-19.756 19.756h-632.18c-9.878 0-19.756-9.878-19.756-19.756v-102.072c0-9.876 6.585-19.756 19.756-19.756zM215.649 660.385h589.377v-62.56h-589.377v62.56zM195.894 204.352h632.18c9.876 0 19.756 9.876 19.756 19.756v233.776c0 9.876-9.88 19.756-19.756 19.756h-632.18c-9.878 0-19.756-9.88-19.756-19.756v-233.776c0-9.88 6.585-19.756 19.756-19.756zM215.649 438.127h589.377v-194.263h-589.377v194.263zM643.030 84.18h-457.672c-4.939 0-9.22 3.951-9.22 9.216v21.073c0 4.94 3.951 9.22 9.22 9.22h458.001c4.94 0 9.22-3.951 9.22-9.22v-21.073c-0.328-4.936-4.28-9.216-9.548-9.216z" />
<glyph unicode="&#xe915;" glyph-name="gallery" data-tags="gallery" d="M111.95 887.56h-39.511v-39.511h39.511v39.511zM181.092 887.56h-39.511v-39.511h39.511v39.511zM247.002 887.56h-39.511v-39.511h39.511v39.511zM1000.951 960h-981.195c-9.877 0-19.756-9.877-19.756-19.756v-984.489c0-9.877 9.877-19.755 19.756-19.755h984.489c9.877 0 19.755 9.877 19.755 19.755v981.196c0 9.877-9.877 23.048-23.048 23.048zM984.49-27.78h-944.977v806.686h944.977v-806.686zM984.49 821.71h-944.977v95.486h944.977v-95.486zM424.773 360.742h171.215c9.877 0 19.755 9.877 19.755 19.755v184.387c0 9.877-9.877 19.755-19.755 19.755h-171.215c-9.877 0-19.755-9.877-19.755-19.755v-184.387c0-13.171 9.877-19.755 19.755-19.755zM444.529 541.835h131.705v-144.873h-131.705v144.873zM684.866 574.772c-3.29-3.294-6.584-6.584-6.584-13.171v-184.383c0-9.877 6.584-19.759 19.755-19.759h171.215c9.877 0 19.755 9.881 19.755 19.759v184.383c0 9.877-9.877 19.755-19.755 19.755h-171.215c-6.584 0-9.877 0-13.171-6.584zM717.793 541.845h128.411v-144.873h-128.411v144.873zM154.738 360.742h171.215c9.877 0 19.756 9.877 19.756 19.755v184.387c0 9.877-9.878 19.755-19.756 19.755h-171.215c-6.586 0-9.877-3.294-13.17-6.584-3.293-3.294-6.586-6.588-6.586-13.171v-184.387c0-13.171 6.586-19.755 19.756-19.755zM174.494 541.835h128.411v-144.873h-128.411v144.873zM424.773 67.72h171.215c9.877 0 19.755 9.877 19.755 19.755v184.383c0 9.881-9.877 19.759-19.755 19.759h-171.215c-9.877 0-19.755-9.877-19.755-19.759v-184.383c0-9.877 9.877-19.755 19.755-19.755zM444.529 252.103h131.705v-144.873h-131.705v144.873zM869.253 291.617h-171.215c-6.584 0-9.877-3.294-13.171-6.588-3.29-3.29-6.584-6.584-6.584-13.171v-184.383c0-9.877 6.584-19.755 19.755-19.755h171.215c9.877 0 19.755 9.877 19.755 19.755v184.383c0 9.881-9.877 19.759-19.755 19.759zM846.204 107.23h-128.411v144.873h128.411v-144.873zM154.738 67.72h171.215c9.877 0 19.756 9.877 19.756 19.755v184.383c0 9.881-9.878 19.759-19.756 19.759h-171.215c-6.586 0-9.877-3.294-13.17-6.588-3.293-3.29-6.586-6.584-6.586-13.171v-184.383c0-9.877 6.586-19.755 19.756-19.755zM174.494 252.103h128.411v-144.873h-128.411v144.873zM322.642 653.788h52.68c9.877 0 19.759 9.878 19.759 19.756s-9.881 19.756-19.759 19.756h-52.68c-9.878 0-19.756-9.878-19.756-19.756s9.878-19.756 19.756-19.756zM487.248 653.788h52.681c9.877 0 19.755 9.878 19.755 19.756s-9.877 19.756-19.755 19.756h-52.681c-9.877 0-19.755-9.878-19.755-19.756s6.584-19.756 19.755-19.756zM648.622 653.788h52.681c9.877 0 19.755 9.878 19.755 19.756s-9.877 19.756-19.755 19.756h-52.681c-9.877 0-19.755-9.878-19.755-19.756s9.877-19.756 19.755-19.756z" />
<glyph unicode="&#xe916;" glyph-name="image-hotspot" data-tags="image-hotspot" d="M396.289 469.044c35.069 0 63.123 28.055 63.123 63.123s-28.055 63.123-63.123 63.123c-35.069 0-63.123-28.055-63.123-63.123s28.055-63.123 63.123-63.123zM964.384 272.657c-31.561 31.561-73.644 49.096-115.726 56.109h-3.506v501.479c0 35.069-14.027 66.63-38.576 91.178s-56.109 38.576-91.178 38.576h-582.137c-35.069 0-66.63-14.027-91.178-38.576s-38.576-56.109-38.576-91.178v-718.904c0-35.069 14.027-66.63 38.576-91.178s56.109-38.576 91.178-38.576h561.095c38.576-31.561 80.658-45.589 126.247-45.589 52.603 0 101.698 21.041 140.273 59.617s59.617 87.671 59.617 140.273c0 49.096-21.041 101.698-56.109 136.767zM42.083 830.246c0 24.547 10.52 45.589 28.055 63.123s38.576 28.055 63.123 28.055h578.629c24.547 0 45.589-10.52 63.123-28.055s28.055-38.576 28.055-63.123v-455.89l-150.794 150.794c-3.506 3.506-10.52 7.014-14.027 7.014-7.014 0-10.52-3.506-14.027-7.014l-224.438-220.931-168.328 150.794c-3.506 3.506-10.52 7.014-14.027 7.014-7.014 0-10.52-3.506-14.027-7.014l-161.314-164.822v540.054zM133.26 20.164l-7.014 3.506c-21.041 0-42.083 10.52-59.617 28.055s-24.547 38.576-24.547 63.123v119.233l175.343 178.85 168.328-150.794c3.506-3.506 7.014-7.014 14.027-7.014s10.52 3.506 14.027 7.014l220.931 220.931 150.794-150.794-17.534-7.014c-3.506 0-7.014-3.506-14.027-3.506h-3.506c-3.506 0-3.506 0-7.014-3.506-3.506 0-3.506 0-7.014-3.506l-3.506-3.506c-3.506 0-3.506 0-7.014-3.506l-21.041-14.027h-3.506c-7.014-7.014-14.027-10.52-21.041-21.041-38.576-38.576-59.617-87.671-59.617-140.273 0-14.027 0-24.547 3.506-42.083l3.506-10.52c3.506-10.52 7.014-17.534 10.52-28.055l3.506-3.506c3.506-7.014 7.014-14.027 10.52-17.534l7.014-10.52h-526.027zM932.821 20.164c-28.055-28.055-70.137-45.589-112.22-45.589s-80.658 17.534-108.712 45.589c-3.506 0-3.506 3.506-7.014 3.506-3.506 3.506-3.506 3.506-7.014 7.014l-7.014 7.014c-3.506 3.506-7.014 10.52-10.52 17.534 0 3.506-3.506 3.506-3.506 3.506 0 3.506-3.506 3.506-3.506 7.014-3.506 7.014-3.506 10.52-3.506 17.534 0 3.506 0 3.506-3.506 7.014 0 3.506 0 3.506-3.506 7.014-3.506 10.52-3.506 21.041-3.506 31.561 0 42.083 17.534 80.658 45.589 112.22 28.055 28.055 70.137 45.589 112.22 45.589s80.658-17.534 112.22-45.589c28.055-28.055 45.589-70.137 45.589-112.22 3.506-38.576-10.52-77.15-42.083-108.712zM880.247 153.417h-42.083v42.083c0 10.52-10.52 21.041-21.041 21.041s-21.041-10.52-21.041-21.041v-42.083h-42.083c-10.52 0-21.041-10.52-21.041-21.041s10.52-21.041 21.041-21.041h42.083v-42.083c0-10.52 10.52-21.041 21.041-21.041s21.041 10.52 21.041 21.041v42.083h42.083c10.52 0 21.041 10.52 21.041 21.041s-7.014 21.041-21.041 21.041z" />
<glyph unicode="&#xe917;" glyph-name="instagram" data-tags="instagram" d="M954.922 898.848h-882.912c-40.701 0-72.011-34.44-72.011-72.011v-757.675c0-40.701 34.44-72.011 72.011-72.011h879.78c40.701 0 72.011 34.44 72.011 72.011v757.675c3.131 40.701-31.308 72.011-68.879 72.011zM983.099 69.162c0-18.785-15.655-31.308-31.308-31.308h-879.78c-18.785 0-31.308 15.655-31.308 31.308v757.675c0 18.785 15.655 31.308 31.308 31.308h879.78c18.785 0 31.308-15.655 31.308-31.308v-757.675zM604.3 429.214h-187.853c-9.393 0-18.785-6.262-18.785-18.785v-194.115c3.131-12.523 9.393-18.785 18.785-18.785h187.853c9.393 0 18.785 6.262 18.785 18.785v194.115c0 9.393-3.131 18.785-18.785 18.785zM588.645 228.838h-153.414v159.676h153.414v-159.676zM316.219 429.214h-172.199c-9.393 0-18.785-6.262-18.785-18.785v-194.115c0-12.523 6.262-18.785 18.785-18.785h172.199c9.393 0 18.785 6.262 18.785 18.785v194.115c3.131 9.393-3.131 18.785-18.785 18.785zM300.565 228.838h-137.76v159.676h137.76v-159.676zM879.78 429.214h-187.853c-9.393 0-18.785-6.262-18.785-18.785v-194.115c0-12.523 9.393-18.785 18.785-18.785h187.853c9.393 0 18.785 6.262 18.785 18.785v194.115c3.131 9.393-3.131 18.785-18.785 18.785zM864.127 228.838h-153.414v159.676h153.414v-159.676zM879.78 710.994h-187.853c-9.393 0-18.785-6.262-18.785-18.785v-194.115c0-9.393 9.393-18.785 18.785-18.785h187.853c9.393 0 18.785 6.262 18.785 18.785v194.115c3.131 9.393-3.131 18.785-18.785 18.785zM864.127 513.748h-153.414v159.676h153.414v-159.676zM316.219 710.994h-172.199c-9.393 0-18.785-6.262-18.785-18.785v-194.115c0-9.393 6.262-18.785 18.785-18.785h172.199c9.393 0 18.785 6.262 18.785 18.785v194.115c3.131 9.393-3.131 18.785-18.785 18.785zM300.565 513.748h-137.76v159.676h137.76v-159.676zM563.548 714.128h-100.189c-37.57 0-68.879-31.308-68.879-68.879v-100.189c0-37.57 31.308-68.879 68.879-68.879h100.189c37.57 0 68.879 31.308 68.879 68.879v100.189c-3.131 37.57-31.308 68.879-68.879 68.879zM425.789 645.249c0 18.785 15.655 34.44 34.44 34.44h100.189c18.785 0 34.44-15.655 34.44-34.44v-100.189c0-18.785-15.655-34.44-34.44-34.44h-100.189c-18.785 0-34.44 15.655-34.44 34.44v100.189zM510.36 548.198c25.047 0 46.964 21.916 46.964 46.963s-21.916 46.964-46.964 46.964c-25.047 0-46.964-21.916-46.964-46.964 3.131-25.047 21.916-46.963 46.964-46.963zM510.36 620.207c12.523 0 25.047-12.523 25.047-25.047s-12.523-25.047-25.047-25.047c-12.523 0-25.047 12.523-25.047 25.047s12.523 25.047 25.047 25.047zM569.81 635.862c3.131 0 9.393 3.131 12.523 6.262s6.262 6.262 6.262 12.523c0 3.131-3.131 9.393-6.262 12.523s-6.262 6.262-12.523 6.262c-6.262 0-9.393-3.131-12.523-6.262s-6.262-6.262-6.262-12.523c0-3.131 3.131-9.393 6.262-12.523 3.131-6.262 6.262-6.262 12.523-6.262z" />
<glyph unicode="&#xe918;" glyph-name="marker" data-tags="marker" d="M156.26-64.001c-86.441 0-156.26 69.816-156.26 156.26v711.481c0 86.441 69.819 156.26 156.26 156.26h711.481c86.443 0 156.26-69.819 156.26-156.26v-711.481c0-86.443-69.816-156.26-156.26-156.26h-711.481zM103.065-0.833l13.299-6.649c13.299-6.649 26.597-6.649 39.896-6.649h711.481c13.298 0 26.595 3.325 39.897 6.649l13.298 6.649-408.935 412.259-408.935-412.259zM156.26 906.805c-56.52 0-103.065-46.546-103.065-103.065v-711.481c0-13.298 3.325-26.595 6.65-39.897l6.649-13.298 561.869 561.87-3.325 6.649c-29.92 56.52-43.221 99.741-43.221 132.987 0 56.52 23.275 109.715 59.847 152.935l16.623 16.624h-502.026v-3.325zM548.573 448l408.935-408.935 6.649 13.298c6.649 13.302 6.649 26.599 6.649 39.897v498.702l-19.947-33.248c-53.195-89.767-116.367-176.206-129.664-192.832-6.649-6.649-13.298-9.974-19.947-9.974s-16.626 3.325-19.951 9.974c-9.974 13.302-69.816 89.767-119.687 176.21l-6.649 9.974-106.39-103.065zM804.573 906.805c-93.092 0-169.561-76.467-169.561-169.558 0-76.467 132.988-265.975 162.912-302.545l6.649-9.974 6.649 9.974c26.595 36.569 162.909 226.077 162.909 302.545 0 93.091-76.465 169.558-169.557 169.558zM299.22 507.843c-89.766 0-166.234 73.144-166.234 166.235s73.143 166.234 166.234 166.234c43.221 0 86.44-16.624 116.365-49.87 3.325-3.325 6.649-9.974 6.649-19.949s-3.325-13.299-6.649-19.949c-3.325-3.325-9.974-6.649-19.951-6.649-9.974 0-13.298 3.325-19.947 6.649-19.947 19.949-49.87 33.247-79.792 33.247-63.169 0-113.039-49.87-113.039-113.039s49.87-113.041 113.039-113.041c46.545 0 89.765 29.923 106.391 73.144l6.649 13.299h-109.716c-13.299 0-26.597 13.299-26.597 26.597s13.299 26.597 26.597 26.597h136.311c13.302 0 26.599-13.299 26.599-26.597 0-89.766-73.144-162.911-162.91-162.911z" />
<glyph unicode="&#xe919;" glyph-name="modal" data-tags="modal" d="M979.231 960h-931.807c-13.171 0-23.048-9.878-23.048-23.048v-977.902c0-13.17 9.878-23.049 23.048-23.049h928.516c13.17 0 23.045 9.88 23.045 23.049v977.902c3.294 13.171-6.585 23.048-19.755 23.048zM956.182-17.901h-882.417v931.805h882.417v-931.805zM376.664 492.437h-184.387v-62.558h184.387v62.558zM310.813 472.686h-55.974v-19.755h55.974v19.755zM837.689 620.873h-385.235c-3.291 0-6.585-3.293-6.585-6.585v-302.92c0-3.294 3.294-6.585 6.585-6.585h385.235c3.294 0 6.585 3.291 6.585 6.585v302.92c0 3.292-3.291 6.585-6.585 6.585zM808.056 354.172l-85.608 88.899h-3.291l-59.268-52.68-75.728 95.483c0 0 0 0-3.294 0 0 0 0 0-3.291 0l-92.193-121.823v217.31h322.673v-227.19zM712.59 489.15c16.464 0 29.634 13.17 29.634 29.634s-13.17 29.634-29.634 29.634c-16.461 0-29.631-13.17-29.631-29.634-3.294-13.17 9.875-29.634 29.631-29.634z" />
<glyph unicode="&#xe91a;" glyph-name="parallax" data-tags="parallax" d="M954.923 898.849h-882.912c-40.702 0-72.011-34.439-72.011-72.011v-757.676c0-40.701 34.44-72.011 72.011-72.011h879.783c40.701 0 72.008 34.439 72.008 72.011v757.676c3.132 40.702-31.307 72.011-68.879 72.011zM983.101 69.162c0-18.788-15.655-31.311-31.307-31.311h-879.783c-18.785 0-31.309 15.655-31.309 31.311v757.676c0 18.786 15.654 31.309 31.309 31.309h879.783c18.784 0 31.307-15.654 31.307-31.309v-757.676zM601.182 541.931c-28.178 31.308-68.879 46.962-109.58 46.962-40.704 0-78.273-15.654-106.451-43.833s-43.833-65.747-43.833-106.451c0-40.701 15.655-78.273 43.833-109.58l84.534-84.534c28.178-31.311 68.879-46.962 109.58-46.962s78.273 15.652 106.451 43.83c28.178 28.178 43.833 65.75 43.833 106.451s-15.655 78.273-43.833 109.583l-84.534 84.534zM663.8 263.28c-21.917-21.917-50.095-34.439-81.402-34.439-31.311 0-62.618 12.523-87.667 37.572l-84.534 84.534c-21.917 21.917-34.439 53.224-34.439 84.534 0 31.307 12.523 62.618 34.439 84.534s50.095 34.439 81.405 34.439c31.307 0 62.618-12.523 87.663-37.572l84.534-87.663c21.917-21.917 34.439-53.227 34.439-84.534 0-28.178-12.523-59.489-34.439-81.405zM491.582 463.658c-3.132 3.129-6.265 6.261-12.526 6.261-3.129 0-9.39-3.132-12.523-6.261-6.261-6.265-6.261-18.788 0-25.049l34.439-34.439c3.132-3.132 6.261-6.261 12.523-6.261 3.132 0 9.394 3.129 12.526 6.261 3.129 3.132 6.261 6.261 6.261 12.523 0 3.132-3.132 9.394-6.261 12.523l-34.439 34.443zM419.584 626.462c3.129 0 6.261 3.131 9.39 3.131 3.132 3.131 6.261 9.392 3.132 12.524 0 6.261-6.261 12.524-15.655 12.524-34.439-6.261-65.75-21.917-90.796-46.963s-40.702-56.355-46.963-90.795c0-3.132 0-9.394 3.131-12.526 3.131-3.129 6.262-6.261 9.393-6.261h3.131c6.261 0 12.524 6.261 15.654 12.523 6.262 28.178 18.786 53.226 40.7 72.012 15.655 25.047 40.704 37.571 68.883 43.832zM435.202 695.33c3.132 0 6.261 3.131 9.394 3.131 3.129 3.131 6.261 9.393 3.129 12.524 0 6.261-6.261 12.524-15.655 12.524-56.356-9.392-109.58-34.439-150.282-75.141s-68.88-90.797-78.272-147.153c0-3.129 0-9.39 3.131-12.523 3.131-3.129 6.261-6.261 9.393-6.261h3.131c6.261 0 12.524 6.261 15.654 12.523 9.393 50.095 34.439 97.058 68.88 131.498 34.44 37.571 81.403 59.487 131.497 68.88z" />
<glyph unicode="&#xe91b;" glyph-name="particel" data-tags="particel" d="M954.919 898.848h-882.908c-40.701 0-72.011-34.44-72.011-72.011v-757.674c0-40.7 34.44-72.011 72.011-72.011h879.78c40.7 0 72.011 34.44 72.011 72.011v757.674c3.129 40.701-31.31 72.011-68.882 72.011zM983.097 69.164c0-18.788-15.652-31.31-31.307-31.31h-879.78c-18.786 0-31.308 15.656-31.308 31.31v757.674c0 18.786 15.655 31.308 31.308 31.308h879.78c18.784 0 31.307-15.655 31.307-31.308v-757.674zM256.754 451.126c0 0-3.13-3.132 0 0-3.13-3.132 0-6.262 0-6.262 3.13 0 3.13 3.129 0 6.262 3.13-3.132 3.13 0 0 0zM767.084 426.084c-15.656 0-31.31-12.522-31.31-28.178l-53.224-15.652c-9.394 15.652-25.049 28.178-43.833 34.44v90.796c15.656 6.262 28.178 21.916 28.178 40.7 0 6.262 0 12.522-3.129 18.785l62.618 68.879c3.129 0 6.262 0 9.39 0 18.788 0 34.44 15.655 34.44 34.441s-15.652 34.44-34.44 34.44c-18.784 0-34.44-15.655-34.44-34.44 0-3.13 0-6.262 3.132-12.523l-62.618-68.879c-6.262 3.13-9.394 3.13-15.656 3.13-18.784 0-34.44-12.523-40.7-28.178h-109.583c-6.262 25.048-25.046 46.963-53.224 53.226v56.356c12.522 6.262 18.784 15.655 18.784 28.178 0 18.785-15.656 34.44-34.44 34.44s-34.44-15.655-34.44-34.44c0-12.523 6.262-25.048 18.784-28.178v-56.356c-31.307-6.262-53.224-34.44-53.224-68.879 0-9.394 3.129-18.784 6.262-25.046l-65.749-43.833c-6.262 3.129-9.393 3.129-15.655 3.129-18.785 0-34.44-15.652-34.44-34.44 0-18.784 15.655-34.44 34.44-34.44s34.44 15.656 34.44 34.44v3.132l59.486 46.962c9.394-9.394 18.784-15.656 31.31-15.656v-90.796c-15.656-6.262-28.178-21.916-28.178-40.7 0-6.262 0-12.522 3.129-18.784l-97.056-103.322c-3.13 0-6.262 0-9.393 0-18.785 0-34.44-15.652-34.44-34.44 0-18.784 15.655-34.44 34.44-34.44s34.44 15.656 34.44 34.44c0 3.132 0 6.262-3.13 12.522l100.189 103.322c6.262-3.132 9.39-3.132 15.652-3.132h3.132l25.046-56.356c-3.129-6.262-6.262-12.522-6.262-21.916 0-18.784 15.656-34.44 34.44-34.44 18.788 0 34.443 15.656 34.443 34.44 0 18.788-15.656 31.31-31.31 34.44l-25.046 56.356c3.129 3.132 6.262 9.394 9.39 15.656h109.583c6.262-25.046 25.046-46.962 53.224-53.224v-56.356c-12.522-6.262-18.784-15.656-18.784-28.178 0-18.788 15.656-34.44 34.44-34.44s34.44 15.652 34.44 34.44c0 12.522-6.262 25.046-18.784 28.178v53.224c31.307 6.262 53.224 34.44 53.224 68.878 0 3.132 0 3.132 0 6.265l53.227 15.652c6.262-6.262 15.652-9.39 25.046-9.39 18.784 0 34.44 15.652 34.44 34.44 0 18.784-25.046 31.307-40.7 31.307zM729.512 673.425c6.262 0 9.394-3.13 9.394-9.393s-3.132-9.392-9.394-9.392c-6.262 0-9.39 3.13-9.39 9.392s3.129 9.393 9.39 9.393zM256.749 438.609c-6.262 0-9.392 3.129-9.392 9.39s3.13 9.394 9.392 9.394c6.262 0 9.393-3.132 9.393-9.394s-3.13-9.39-9.393-9.39zM256.749 185.008c-6.262 0-9.392 3.129-9.392 9.39s3.13 9.394 9.392 9.394c6.262 0 9.393-3.132 9.393-9.394s-3.13-9.39-9.393-9.39zM457.125 238.232c6.262 0 9.394-3.132 9.394-9.394s-3.132-9.39-9.394-9.39c-6.262 0-9.394 3.129-9.394 9.39s3.132 9.394 9.394 9.394zM619.932 566.974c9.39 0 18.784-9.391 18.784-18.785s-9.394-18.784-18.784-18.784c-9.394 0-18.788 9.39-18.788 18.784s9.394 18.785 18.788 18.785zM403.9 710.996c6.265 0 9.394-3.13 9.394-9.393s-3.129-9.392-9.394-9.392c-6.262 0-9.39 3.13-9.39 9.392s3.129 9.393 9.39 9.393zM356.937 548.189c0 25.048 18.784 43.833 43.833 43.833 25.046 0 43.833-18.786 43.833-43.833s-18.788-43.833-43.833-43.833c-21.916-3.129-43.833 18.788-43.833 43.833zM403.9 329.027c-9.39 0-18.784 9.394-18.784 18.784 0 9.394 9.394 18.788 18.784 18.788 9.394 0 18.788-9.394 18.788-18.788-3.132-9.39-9.394-18.784-18.788-18.784zM557.315 357.205h-118.974c-3.132 12.522-12.526 21.916-25.049 25.049v103.318c28.178 3.129 50.094 25.046 53.227 53.224h118.974c3.129-12.522 12.522-21.916 25.046-25.046v-103.318c-28.178-3.132-50.094-25.049-53.224-53.227zM619.932 185.008c-6.262 0-9.394 3.129-9.394 9.39s3.132 9.394 9.394 9.394c6.262 0 9.39-3.132 9.39-9.394s-3.129-9.39-9.39-9.39zM619.932 303.981c-25.049 0-43.833 18.784-43.833 43.83 0 25.049 18.784 43.833 43.833 43.833 25.046 0 43.833-18.784 43.833-43.833 3.129-25.046-18.788-43.83-43.833-43.83zM767.084 385.383c-6.262 0-9.394 3.132-9.394 9.394s3.132 9.39 9.394 9.39c6.262 0 9.394-3.129 9.394-9.39s-6.265-9.394-9.394-9.394zM259.936 604.539c6.916 0 12.523 5.607 12.523 12.523s-5.607 12.523-12.523 12.523c-6.917 0-12.523-5.607-12.523-12.523s5.607-12.523 12.523-12.523zM569.905 736.048c6.918 0 12.522 5.607 12.522 12.523s-5.605 12.523-12.522 12.523c-6.914 0-12.522-5.607-12.522-12.523s5.608-12.523 12.522-12.523zM829.671 516.879c6.918 0 12.526 5.605 12.526 12.522s-5.608 12.522-12.526 12.522c-6.914 0-12.522-5.605-12.522-12.522s5.608-12.522 12.522-12.522zM848.464 191.266c6.918 0 12.522 5.608 12.522 12.522 0 6.918-5.605 12.526-12.522 12.526-6.914 0-12.522-5.608-12.522-12.526 0-6.914 5.608-12.522 12.522-12.522zM175.362 250.754c6.916 0 12.523 5.605 12.523 12.522s-5.607 12.522-12.523 12.522c-6.917 0-12.523-5.605-12.523-12.522s5.607-12.522 12.523-12.522zM532.252 444.87c6.918 0 12.522 5.608 12.522 12.522 0 6.918-5.605 12.526-12.522 12.526s-12.522-5.608-12.522-12.526c0-6.914 5.605-12.522 12.522-12.522z" />
<glyph unicode="&#xe91c;" glyph-name="toggle" data-tags="toggle" d="M415.87 606.319h-320.001c-30.316 0-53.895-23.578-53.895-53.894v-562.528c0-30.316 23.579-53.897 53.895-53.897h320.001c30.316 0 53.893 23.581 53.893 53.897v559.16c0 33.684-23.577 57.262-53.893 57.262zM429.344-10.103c0-6.739-6.739-13.474-13.474-13.474h-320.001c-6.737 0-13.474 6.735-13.474 13.474v559.16c0 6.735 6.736 13.471 13.474 13.471h320.001c6.735 0 13.474-6.735 13.474-13.471v-559.16zM927.843 606.319h-320.001c-30.316 0-53.893-23.578-53.893-53.894v-562.528c0-30.316 23.577-53.897 53.893-53.897h320.001c30.316 0 53.897 23.581 53.897 53.897v559.16c3.368 33.684-23.581 57.262-53.897 57.262zM941.318-10.103c0-6.739-6.735-13.474-13.474-13.474h-320.001c-6.735 0-13.474 6.735-13.474 13.474v559.16c0 6.735 6.739 13.471 13.474 13.471h320.001c6.739 0 13.474-6.735 13.474-13.471v-559.16zM392.267 741.052h276.211c30.316 0 57.265 23.579 57.265 57.263v104.422c0 30.316-23.581 57.263-57.265 57.263h-276.211c-30.316 0-57.264-23.579-57.264-57.263v-104.422c0-33.684 23.579-57.263 57.264-57.263zM375.425 899.368c0 6.736 6.735 13.474 13.474 13.474h276.211c6.735 0 13.474-6.737 13.474-13.474v-104.422c0-6.736-6.739-13.474-13.474-13.474h-276.211c-6.739 0-13.474 6.736-13.474 13.474v104.422zM567.469 808.418h80.842v80.843h-80.842v-80.843zM857.122 444.627h-178.526v-40.419h178.526v40.419zM857.122 346.936h-178.526v-40.422h178.526v40.422zM857.122 249.258h-178.526v-40.422h178.526v40.422zM341.769 444.627h-178.527v-40.419h181.896v40.419h-3.369zM341.769 346.936h-178.527v-40.422h181.896v40.422h-3.369zM341.769 249.258h-178.527v-40.422h181.896v40.422h-3.369z" />
<glyph unicode="&#xe91d;" glyph-name="tooltip" data-tags="tooltip" d="M599.067 583.749h-392.485c-5.902 0-17.706-5.902-17.706-17.706 0-5.902 5.902-17.706 17.706-17.706h392.485c5.902 0 17.706 5.902 17.706 17.706 0 5.902-5.902 17.706-17.706 17.706zM354.133 474.556h-147.551c-5.902 0-17.706-5.902-17.706-17.706 0-5.902 5.902-17.706 17.706-17.706h147.551c5.902 0 17.706 5.902 17.706 17.706 0 5.902-5.902 17.706-17.706 17.706zM888.254 875.897c-59.020 0-106.236-38.363-126.893-88.53h-711.193c-29.51 0-50.168-20.657-50.168-50.168v-507.573c0-29.51 20.657-50.168 50.168-50.168h41.314v-138.698c0-5.902 2.951-11.804 8.853-17.706 0-2.951 5.902-2.951 8.853-2.951 8.853 0 11.804 2.951 14.755 8.853l153.453 153.453h655.124c5.902 0 17.706 5.902 17.706 17.706v421.995c44.266 23.608 73.775 67.873 73.775 118.040 0 76.726-61.971 135.747-135.747 135.747zM908.912 223.723h-640.368c-5.902 0-11.804-2.951-14.755-5.902l-123.942-123.942v112.138c0 11.804-5.902 17.706-17.706 17.706h-61.971c-2.951 0-8.853 2.951-8.853 8.853v504.622c0 2.951 2.951 8.853 8.853 8.853h705.291v-2.951c0-73.775 59.020-132.796 132.796-132.796 5.902 0 11.804 0 20.657 2.951v-389.534zM950.226 675.228c-11.804-11.804-26.559-17.706-41.314-20.657-5.902 0-11.804-2.951-20.657-2.951-50.168 0-91.481 41.314-91.481 91.481v2.951c0 14.755 5.902 29.51 11.804 41.314 14.755 26.559 44.266 44.266 79.677 44.266 50.168 0 91.481-41.314 91.481-91.481 0-26.559-11.804-50.168-29.51-64.922z" />
<glyph unicode="&#xe91e;" glyph-name="community" data-tags="community" horiz-adv-x="1311" d="M1132.233 421.388l-69.526 16.552v12.481c45.33 31.576 74.871 84.292 74.871 143.628v90.406c0 96.517-78.688 175.208-175.206 175.208-43.295 0-83.022-15.789-113.578-42.019-34.128 83.529-116.13 142.356-211.628 142.356-95.752 0-177.754-59.082-211.878-142.866-30.56 26.485-70.542 42.274-114.090 42.274-96.517 0-175.208-78.691-175.208-175.208v-90.151c0-59.337 29.796-111.798 74.871-143.628v-12.481l-69.523-16.552c-83.275-19.866-141.338-93.463-141.338-178.774v-73.089c0-21.647 17.572-39.219 39.218-39.219h179.792c-0.255-4.837-0.51-9.421-0.51-14.258v-140.829c0-21.647 17.572-39.219 39.218-39.219h235.308c21.647 0 39.219 17.572 39.219 39.219 0 21.643-17.572 39.215-39.219 39.215h-196.090v101.614c0 75.379 51.187 140.575 124.783 158.147l107.471 25.719 71.815-163.492c6.365-14.262 20.374-23.429 35.906-23.429 15.536 0 29.54 9.167 35.91 23.429l71.815 163.238 106.955-25.465c73.343-17.572 124.789-82.514 124.789-158.147v-101.356h-199.913c-21.643 0-39.215-17.572-39.215-39.219s17.572-39.219 39.215-39.219h239.129c21.647 0 39.219 17.572 39.219 39.219v140.575c0 4.837-0.254 9.675-0.508 14.516h180.302c21.643 0 39.215 17.572 39.215 39.215v72.835c-0.508 85.311-58.573 158.908-141.591 178.774zM865.346 599.906c0 1.783 0.254 3.82 0.254 5.603v34.888c-0.254 49.659-0.254 52.206 7.893 82.511 14.77 34.379 49.152 58.572 88.879 58.572 51.188 0 93.463-39.982 96.772-90.405l0.254-78.182v-18.591c0-53.48-43.549-96.771-96.772-96.771s-96.772 43.545-96.772 96.771v5.603h-0.508zM214.172 612.64l0.255 78.182c3.31 50.423 45.33 90.405 96.772 90.405 39.728 0 74.107-24.193 88.877-58.572 7.895-31.323 7.895-41.765 7.895-82.511v-46.094c0-53.479-43.547-96.77-96.772-96.77-53.479 0-96.772 43.545-96.772 96.77v18.591h-0.255zM512.381 362.308c-9.933 4.329-89.387-7.385-89.387-7.385l-19.862-4.841c-76.908-18.334-137.518-72.069-166.295-141.591h-158.655v34.124c0 48.894 33.615 91.423 81.238 102.883l99.573 23.683c17.572 4.329 30.050 19.866 30.050 37.945v13.242c7.131-1.020 14.516-1.528 21.901-1.528s14.77 0.508 21.901 1.528l2.037 0.254c27.249 4.329 53.225 14.516 76.143 29.798 12.734 8.913 23.937 19.354 33.87 31.068 17.572-26.997 40.493-49.914 67.232-67.486v-51.696h0.254zM682.242 353.395l-45.838-104.157-45.838 104.411v28.013c15.024-3.056 30.302-4.583 46.346-4.583 15.536 0 30.814 1.528 45.584 4.583v-28.266h-0.254zM636.912 455.258c-82.764 0-150.249 67.486-150.249 150.251v126.058c0 82.765 67.486 150.251 150.249 150.251 74.871 0 137.011-54.752 148.468-126.313l1.786-91.933v-63.92c-3.060-80.218-69.272-144.394-150.254-144.394zM1195.135 208.49h-159.166c-28.774 69.521-89.387 123.003-166.547 141.591l-19.612 4.583c0 0-78.946 19.866-89.129 15.282v43.291c26.993 17.572 50.168 40.493 67.994 67.74 9.933-11.715 21.135-21.897 33.616-30.556 22.409-15.79 48.386-26.231 75.633-29.798l2.548-0.254c7.131-1.020 14.516-1.528 21.901-1.528s14.77 0.508 21.901 1.528v-13.242c0-18.080 12.476-33.87 30.048-37.945l99.574-23.937c47.878-11.461 81.24-53.735 81.24-102.883v-33.87z" />
<glyph unicode="&#xe91f;" glyph-name="contribute" data-tags="contribute" horiz-adv-x="1280" d="M428.396 4.941c5.317-14.94 19.459-24.955 35.331-24.955h355.084c15.872 0 30.013 9.989 35.333 24.955 22.272 62.664 75.484 108.058 138.378 121.17v-146.125h249.999c12.18 0 23.588 5.908 30.607 15.846 7.045 9.938 8.796 22.661 4.746 34.145-37.007 104.673-136.596 174.996-247.88 174.996-45.629 0-89.293-12.078-127.514-33.572v111.099h59.848c20.721 0 37.494 16.799 37.494 37.499 0 20.726-16.799 37.499-37.494 37.499h-59.848v80.184c127.048 18.245 225.014 127.798 225.014 259.829v74.997c0 20.723-16.799 37.498-37.499 37.498-20.721 0-37.499-16.801-37.499-37.498v-74.997c0-93.139-68.26-170.588-157.348-185.065-11.74 30.762-36.567 55.073-67.64 66.093v43.95c0 47.615-17.884 91.126-47.227 124.237 71.306 26.556 122.25 95.307 122.25 175.775 0 20.723-16.804 37.498-37.499 37.498-20.7 0-37.499-16.801-37.499-37.498 0-62.041-50.478-112.495-112.497-112.495h-149.99c-62.043 0-112.496 50.479-112.496 112.495 0 20.723-16.801 37.498-37.498 37.498s-37.498-16.801-37.498-37.498c0-80.442 50.944-149.193 122.25-175.775-29.369-33.111-47.228-76.622-47.228-124.237v-43.95c-31.098-11.020-55.925-35.356-67.641-66.093-89.113 14.478-157.348 91.927-157.348 185.065v74.997c0 20.723-16.801 37.498-37.498 37.498-20.723 0-37.498-16.801-37.498-37.498v-74.997c0-132.005 97.966-241.584 225.016-259.829v-80.184h-65.267c-20.723 0-37.498-16.799-37.498-37.499 0-20.726 16.801-37.499 37.498-37.499h65.267v-109.681c-37.602 20.644-80.391 32.154-125.011 32.154-112.366 0-213.531-71.409-250.333-174.945-4.078-11.484-2.323-24.233 4.697-34.196s18.452-15.872 30.634-15.872h252.501v146.12c62.815-13.082 116.030-58.501 138.302-121.139zM1067.546 126.213c45.189-9.216 85.371-34.739 112.829-71.204h-112.829v71.204zM527.524 622.515c0 62.042 50.478 112.495 112.492 112.495 62.019 0 112.497-50.48 112.497-112.495v-37.498h-225.014v37.498h0.026zM452.5 472.497c0 20.671 16.826 37.498 37.498 37.498h299.986c20.669 0 37.499-16.826 37.499-37.498v-363.036c0-0.384 0.051-0.748 0.051-1.132-13.215-16.184-24.622-34.043-33.782-53.345h-305.071c-9.755 20.49-21.988 39.332-36.234 56.284v361.229h0.052zM214.994 54.984h-114.662c28.001 36.132 69.164 61.885 114.662 71.178v-71.178z" />
<glyph unicode="&#xe920;" glyph-name="uniE920" d="M597.333 874.667c0-47.128-38.205-85.333-85.333-85.333s-85.333 38.205-85.333 85.333c0 47.128 38.205 85.333 85.333 85.333s85.333-38.205 85.333-85.333z" />
<glyph unicode="&#xe921;" glyph-name="uniE921" d="M338.987 792.32c0-43.594-35.34-78.933-78.933-78.933s-78.933 35.34-78.933 78.933c0 43.594 35.34 78.933 78.933 78.933s78.933-35.34 78.933-78.933z" />
<glyph unicode="&#xe922;" glyph-name="uniE922" d="M179.627 582.827c0-40.059-32.474-72.533-72.533-72.533s-72.533 32.474-72.533 72.533c0 40.059 32.474 72.533 72.533 72.533s72.533-32.474 72.533-72.533z" />
<glyph unicode="&#xe923;" glyph-name="uniE923" d="M173.227 313.173c0-36.524-29.609-66.133-66.133-66.133s-66.133 29.609-66.133 66.133c0 36.524 29.609 66.133 66.133 66.133s66.133-29.609 66.133-66.133z" />
<glyph unicode="&#xe924;" glyph-name="uniE924" d="M319.787 103.68c0-32.99-26.744-59.733-59.733-59.733s-59.733 26.744-59.733 59.733c0 32.99 26.744 59.733 59.733 59.733s59.733-26.744 59.733-59.733z" />
<glyph unicode="&#xe925;" glyph-name="uniE925" d="M565.333 21.333c0-29.455-23.878-53.333-53.333-53.333s-53.333 23.878-53.333 53.333c0 29.455 23.878 53.333 53.333 53.333s53.333-23.878 53.333-53.333z" />
<glyph unicode="&#xe926;" glyph-name="uniE926" d="M810.88 103.68c0-25.921-21.013-46.933-46.933-46.933s-46.933 21.013-46.933 46.933c0 25.921 21.013 46.933 46.933 46.933s46.933-21.013 46.933-46.933z" />
<glyph unicode="&#xe927;" glyph-name="uniE927" d="M957.44 313.173c0-22.386-18.147-40.533-40.533-40.533s-40.533 18.147-40.533 40.533c0 22.386 18.147 40.533 40.533 40.533s40.533-18.147 40.533-40.533z" />
<glyph unicode="&#xe928;" glyph-name="uniE928" d="M951.040 582.827c0-18.851-15.282-34.133-34.133-34.133s-34.133 15.282-34.133 34.133c0 18.851 15.282 34.133 34.133 34.133s34.133-15.282 34.133-34.133z" />
<glyph unicode="&#xe929;" glyph-name="uniE929" d="M791.68 792.32c0-15.317-12.417-27.733-27.733-27.733s-27.733 12.417-27.733 27.733c0 15.317 12.417 27.733 27.733 27.733s27.733-12.417 27.733-27.733z" />
<glyph unicode="&#xe92a;" glyph-name="lock" data-tags="lock" horiz-adv-x="768" d="M672 563.2h-582.4c-51.2 0-89.6-38.4-89.6-83.2v-505.6c0-19.2 19.2-38.4 38.4-38.4h672c25.6 0 44.8 19.2 44.8 44.8v499.2c0 44.8-38.4 83.2-83.2 83.2zM416 192v-76.8c0-19.2-19.2-38.4-38.4-38.4s-38.4 19.2-38.4 38.4v76.8c-38.4 12.8-64 51.2-64 96 6.4 51.2 51.2 96 108.8 96s102.4-44.8 102.4-102.4c-6.4-38.4-32-76.8-70.4-89.6zM384 249.6c19.2 0 38.4 19.2 38.4 38.4s-19.2 32-38.4 32c-19.2 0-38.4-19.2-38.4-38.4s19.2-32 38.4-32zM633.6 742.4c-19.2 128-128 217.6-256 217.6-6.4 0-12.8 0-19.2 0-134.4-12.8-236.8-121.6-236.8-262.4 0-38.4 0-96 0-147.2v-32h83.2v12.8c0 12.8 0 25.6 0 38.4 0 57.6 0 121.6 0 166.4 6.4 64 51.2 108.8 115.2 128 25.6 6.4 44.8 12.8 64 12.8 38.4 0 76.8-12.8 115.2-44.8 32-32 51.2-76.8 51.2-128 0-25.6 0-166.4 0-166.4l83.2 6.4c0 0 0 147.2 0 166.4 0 12.8 0 19.2 0 32z" />
</font>
</defs>
</svg>
